Saturday, March 19, 2011

Ninja Assassin 2009

Ninja Assassin 2009
A young ninja turns his back on the orphanage that raised him, leading to a confrontation with a fellow ninja from the clan.






Ninja Assassin in HINDI Dub Download now




Learn Ethical hacking in Facebook  and hackacomputer.blogspot.com

Ninja Assassin in English Download now





Ninja Assassin (2009) DVDRip XviD-MAX

Format                           : AVI
Format/Info                      : Audio Video Interleave
File size                        : 902 MiB
Duration                         : 1h 38mn
Overall bit rate                 : 1 279 Kbps
Writing application              : VirtualDubMod 1.5.10.2 (build 2542/release)
Writing library                  : VirtualDubMod build 2542/release
Original source form             : MAX TORRENTZ
Copyright                        : SIGISMUNT

Video
Format                           : xvid
Codec ID                         : xvid
Duration                         : 1h 38mn
Bit rate                         : 1 139 Kbps
Width                            : 720 pixels
Height                           : 304 pixels
Display aspect ratio             : 2.35:1
Frame rate                       : 23.976 fps
Resolution                       : 24 bits
Bits/(Pixel*Frame)               : 0.217
Stream size                      : 803 MiB (89%)

Audio
ID                               : 1
Format                           : MPEG Audio
Format version                   : Version 1
Format profile                   : Layer 3
Codec ID                         : 55
Codec ID/Hint                    : MP3
Duration                         : 1h 38mn
Bit rate mode                    : Constant
Bit rate                         : 128 Kbps
Channel(s)                       : 2 channels
Sampling rate                    : 48.0 KHz
Resolution                       : 16 bits
Stream size                      : 90.3 MiB (10%)
Alignment                        : Aligned on interleaves
Interleave, duration             : 24 ms (0.58 video frame)
Interleave, preload duration     : 24 ms
Writing library                  : LAME3.96.1

0 comments:

Post a Comment

 
Tags: download movie,hindi,software,hacking movies, system tools, movie, download windows xp ,download microsoft,adobe photoshop, aarakshan movie, php mysql learning php, Bollywood news, hindi movie news, movie reviews, music reviews, movie videos,Interviews, wallpapers, trailers,movie free download,learning php mysq,download am kalam, saroya ,india, blood runs cold, download , azaan movie, google chrome os, azaan movie free download,fraandship karoge movie download, mausam movie free download,download , yogesh saroya, shraddha sharma all songs, mujhse fraandship karoge movie, movie free download english, learning php mysql step by step guide free downloa,how to find email address of facebook,how to get friends ip address,luv ka the end movie free download,free download titanic ii hindi dubbed,learn javascript and ajax with wschools ebook free,learn html and css with w3schools ebook free download,tere mere phere movie review,khap movie free download,final destination free download,mausam movie free download,pirates of the caribbean on stranger tides free ,thats girl in yellow boots movies free download,bheja fry good quality free bollywood ,double dhamaal movie free download,aarakshan movie free download,i am kalam free download i am kalam movie free ,x men first class movie download,source code movie in hindi dub,shor in the city free download,zindagi na milegi dobara movie free download,murder download free,cpuz download,the css anthology second edition,fonts free download,download winzip and winrar free,gta san andreas free download,microsoft malicious software removal tool ,windows xp system restore tool ,symantec antivirus free download3,dj mixes songs party sizzlers,google chrome os download,adobe dreamweaver cs free download,microsoft windows xp professional sp free downloa,the ultimate tattoo flash collection,adobe photoshop cs free download,microsoft office free download,autodesk autocad free download,oxford pocket dictionary software,baraha free indian language software,save as pdf office download,net tools suite pack download ,antivirus ,dictionary ,fonts ,hacking ,hindi dum movies ,hindi movies ,jokes ,movie review ,movies ,news ,programing ebooks ,songs ,video ,piranha movie free download in hindi,free download ankit fadia hacking books,dumb and dumber movie free download,red cliff movie downlaod in hindi,hacking windows xp ebook download,state by chetan bhagat free download,aspnet unleashed free download,how many web are there,view my complete profile,blogger,free wordpress themes,premium blogger themes,ankit fadia,force movie free download,aarakshan movie free download,free tattoo flash,,tattoo flash,mausam movie free download,force movie free download,aarakshan movie free download torrent,free download,maussam movie free download,net tools suite,zindagi na milegi dobara movie free download